Z.lo - тюнинг, автомобили, автоправо, автозвук, юмор, автоспорт

Вернуться   Z.lo - тюнинг, автомобили, автоправо, автозвук, юмор, автоспорт > Разное > Куплю-продам

Ответ
 
LinkBack Опции темы Поиск в этой теме
Старый 07.11.2019, 04:10   #1 (permalink)
Новичок
 
Регистрация: 22.10.2019
Адрес: Sierra Leone
Сообщений: 6
Отправить сообщение для Raymondthodo с помощью ICQ Отправить сообщение для Raymondthodo с помощью AIM Отправить сообщение для Raymondthodo с помощью Yahoo Отправить сообщение для Raymondthodo с помощью Skype™
По умолчанию Superkame Mercedes Benz Actros Mp2, Mp3 Su Defektais

Для загрузки приложения FLAC MP3 Converter - Free Change FLAC Recordsdata to MP3 из Mac App Retailer необходим компьютер Mac с операционной системой Mac OS X 10.6.6 или более поздней версии. Подробнее.
СМИ обезьяна Commonplace предлагает множество способов наслаждаться ваши любимые мелодии, но его макет по умолчанию не очень легко на глаз. К счастью можно настроить и почти каждый конвертер mp2 в mp3 на русском дюйм, этот мощный музыкальный проигрыватель. Это, в сочетании с встроенным потоковое радио и других хитроумных функциях, делают его одним из лучших свободных средств массовой информации игроков на рынке.
Удобный инструмент, позволяющий разрезать большой фильм на несколько маленьких частей или небольшие клипы. Поддерживает большинство популярных видео форматов, включая 3GP, AVI, MPG, MPA, VOB, RM, MP4, Home windows Media file(.asf,wmv,wma), FLV(flash video), MP3(.mp3), MKV(Matroska Video). Встроенный проигрыватель обеспечивает с точностью до секунды или кадра выбрать начало и конец фрагмента, а функция разбиения видео файла на равные части или по определенному размеру поможет быстро и удобно нарезать ролики без потери качества.
MediaMonkey обладает способностью копировать и вставлять песни от игрока на ваш iPod Touch и почти любое другое устройство mp3. На вершине, что он имеет функцию автоматической пометки основные его собственной, лучшая часть является возможность поставить песни в теги. Это полезно для iPod коснуться пользователей, которые смогут увидеть тексты как песня играет.
Первое, что нужно сделать - это добавить файлы в список. В процессе тестирования, в один проект я добавлял AVI, FLV и WMV файлы. Затем нужно настроить меню. В списке элементов меню кликните дважды по одному из элементов, чтобы отредактировать его. И последнее - запастись временем, потому как видео на несколько Гб будет конвертироваться довольно долго. Установочный файл программы не имеет встроенных кодеков, поэтому перед началом работы установите K онлайн mp2 в mp3 конвертер-Lite Codec Pack - это обеспечит поддержку всех вышеперечисленных форматов.
Всем привет! У меня такая проблема: есть прога (по изуч. Английского) которая читает видеофайлы форматаmov , так вот часть файлов нечаяно удалил. Скачал их в другом форматеmp4 в инете. Пытался их перекодировать с помощью FFmpeg вmov, всё получилось однако файлы ни читаются этой прогой (по изуч. Английского). Думаю, что проблема в параметрах. Данные файла, который читается такие: Duration: 00:01:50.2, begin: 0.000000, bitrate: 680 kbs Stream #0.0(eng): Video: svq1, yuv410p, 320x240, 15.00 fps(r) Stream #0.1(eng): Audio: mp2. 44100 Hz, stereo Stream #0.2(eng): Information: text 0x74786574 Короче помогите написать код в файлеbat, чтобы контертнуть в форматmov с такими же параметрами файлmp4 Заранее благодарен!!!
Для отбора софта я установил определенные критерии. Прежде всего, программа должна быть бесплатной - если и есть софт, за который стоит заплатить, то это уж точно не мультимедиа конвертеры, их развелось очень много, и порой, бесплатные варианты даже лучше платных. Второй критерий - максимальная простота интерфейса, и по возможности, русский интерфейс. И третье требование - хорошая функциональность.
The Best mp4 to mp3 converter here are the findings: free mp4 to mp3 converter online flip step mp4 to mp3 converter free on-line himself Mac OS X (10.four and above) and Home windows (XP and newer) customers can install Sound File Converter. Extra » In case you have a uncommon audio file you need to convert to something more widespread (or vice versa), it's best to strive the SUPER audio converter.
Однако, кроме DVD риппинга, вы может использовать эту программу, как простой конвертер - добавить видео с жесткого диска, выбрать формат, и запустить кодирование. Отсутствие русского интерфейса компенсируется простотой программы, а единственным минусом Next из mp2 в mp3 DVD Ripper является то, что по окончании каждой операции конвертирования программа предлагает купить профессиональную версию.
Raymondthodo вне форума   Ответить с цитированием
Реклама

Ответ

Похожие темы
Тема Автор Раздел Ответов Последнее сообщение
Оптика Для MERCEDES Actros Mega MP3 Raymondthodo Куплю-продам 0 31.10.2019 07:01
Оптика Для MERCEDES Actros Mega MP3 Raymondthodo Куплю-продам 0 27.10.2019 12:22


Здесь присутствуют: 1 (пользователей: 0 , гостей: 1)
 
Опции темы Поиск в этой теме
Поиск в этой теме:

Расширенный поиск

Ваши права в разделе
Вы не можете создавать новые темы
Вы не можете отвечать в темах
Вы не можете прикреплять вложения
Вы не можете редактировать свои сообщения

BB коды Вкл.
Смайлы Вкл.
[IMG] код Вкл.
HTML код Выкл.
Trackbacks are Вкл.
Pingbacks are Вкл.
Refbacks are Вкл.



Текущее время: 02:57. Часовой пояс GMT +4.


Яндекс.Метрика Строительство ремонт и дизайн